#TITLE:Piano Concerto N1 "Scorpion Fire";
#SUBTITLE:~Magna Trick original~;
#ARTIST:Virkato;
#TITLETRANSLIT:;
#SUBTITLETRANSLIT:;
#ARTISTTRANSLIT:;
#CREDIT:Magna Trick;
#BANNER:PCN1SFFV-BN.png;
#BACKGROUND:PCN1SFFV-BG.png;
#LYRICSPATH:;
#CDTITLE:Magna Trick title!.png;
#MUSIC:28.sAmt+1+hs+h(PF concerto No.1 hAnti-Aresh).mp3;
#OFFSET:-0.360;
#SAMPLESTART:35.736;
#SAMPLELENGTH:11.980;
#SELECTABLE:YES;
#BPMS:0.000=101.160,7.000=70.000,8.500=85.000,11.000=88.000,14.000=100.000,17.000=90.000,21.500=73.000,22.500=67.000,24.000=100.001,24.500=130.821,25.000=141.261,25.500=169.221,26.000=169.001,28.000=184.801,54.500=174.001,56.500=185.001,59.000=180.001,59.500=178.001,60.000=175.001,60.500=172.001,61.000=169.001,160.000=84.501,176.000=82.501,190.000=84.001,194.000=85.001,206.000=169.001,222.000=167.501,250.500=85.001,258.000=77.501,261.000=80.001,271.500=82.501,276.000=85.001,278.500=81.002,300.500=76.002,303.000=60.001,311.500=65.002,313.500=67.002,314.500=65.002,316.000=64.002,317.500=63.502,321.500=95.001,327.000=70.002,329.500=96.502,367.000=96.002,369.500=90.002,370.500=89.302,371.500=88.502,385.500=106.502,416.500=105.002,432.500=80.002,439.000=64.002,439.500=89.002,440.000=95.002,440.500=103.002,442.500=93.002,444.000=80.002,445.000=80.002,445.500=65.002,446.000=106.002,490.250=156.002,492.000=164.002,494.000=154.402,507.000=158.002,510.000=165.002,541.000=180.002,547.500=184.402,589.000=183.002,593.000=180.002,597.000=174.002,610.000=160.002,642.000=165.002,651.500=152.002,660.000=145.002,680.833=144.002,699.000=158.002,750.000=145.002,753.000=154.002,767.000=156.002,770.000=165.002,773.500=167.002,778.000=168.002,786.000=165.002,789.000=176.002,835.000=184.802,876.000=175.002,910.000=176.002,923.000=177.002,948.000=170.002,952.000=171.002,955.000=178.002,981.000=176.002,996.000=88.002,1001.000=82.002,1001.500=79.002,1003.000=83.002,1009.000=90.002,1009.500=60.002,1010.000=50.002;
#STOPS:64.500=4.000
,124.000=0.060
,159.000=0.040
,250.500=3.500
,369.500=0.300
,385.000=0.240
,625.500=0.120
,684.500=0.060
,770.000=0.500
,789.000=0.200
,835.000=0.060
;
#BGCHANGES:;
// cache tags:
#FIRSTBEAT:0.000;
#LASTBEAT:1011.000;
#SONGFILENAME:Songs/Chilean Keyboard Megapack 3/(Magna Trick) Piano Concerto N1 Scorpion Fire -Full-/Scorpion Fire Long Version.sm;
#HASMUSIC:1;
#HASBANNER:1;
#MUSICLENGTH:481.131;
// end cache tags

//---------------dance-single - ----------------
#NOTES:
     dance-single:
     :
     Challenge:
     12:
     0.960,1.000,1.000,0.497,1.000,2489.000,500.000,239.000,0.000,41.000:
0120
0000
0000
0000
,
0000
0000
0000
0030
,
2002
0000
3003
0000
0012
0000
0003
0010
,
2100
3000
0000
0000
,
2001
0000
0000
0000
0000
0000
0000
0000
0000
0000
0000
0000
3000
0000
0000
0000
0000
0000
0001
0000
0010
0000
0100
0000
1000
0000
0001
0000
0000
0000
0000
0000
0000
0000
0000
0000
0000
0000
0000
0000
0000
0000
0001
0000
0010
0000
0000
0100
,
0000
0000
0000
0000
1000
0000
0000
0000
0000
0000
0000
0000
0010
0000
0000
0000
0000
0000
0000
0000
0100
0000
0000
0000
0000
0000
0000
0001
0000
0000
0000
0000
0000
0000
0000
0000
0000
0000
0000
1000
0000
0000
0000
0000
0000
0000
0000
0000
0110
0000
0000
0000
0000
0000
0000
0000
0000
0000
0000
0000
0000
0000
0000
0000
0000
0000
0000
0000
0000
0000
0000
0000
0000
0000
0000
0000
0000
0000
0000
0000
0000
0000
0000
0000
0000
0000
0000
0000
0000
0000
0000
0000
0000
0000
0000
0000
1000
0000
0000
0001
0000
0000
0000
0000
0000
0000
0000
0000
0000
0000
0000
0000
0000
0000
0000
0000
0000
0000
0000
0000
0000
0000
0000
0000
0000
0000
0000
0000
0000
0000
0000
0000
0000
0000
0000
0000
0000
0000
0000
0000
0000
0000
0000
0000
2222
0000
0000
0000
0000
0000
0000
0000
0000
0000
0000
0000
0000
0000
0000
0000
0000
0000
0000
0000
0000
0000
0000
0000
0000
0000
0000
0000
0000
0000
0000
0000
0000
0000
0000
0000
0000
0000
0000
0000
0000
0000
0000
0000
0000
0000
0000
0000
,
0000
0000
0000
3333
0002
0000
0000
0000
,
2003
0000
0000
0000
3100
0010
0001
1000
0010
0100
0001
0010
0001
1000
0010
0100
,
0001
0010
0001
1000
0100
0001
0100
1000
0001
0100
0010
1000
0001
0100
1001
0000
,
0101
0000
0110
0000
1010
0000
1000
0001
0100
0001
1000
0100
1000
0001
0010
0100
,
0010
0001
1000
0010
0100
0001
1000
0100
1000
0001
0100
0001
0010
0100
1000
0001
,
0110
0000
1010
0000
0101
0000
1001
0000
0010
1000
0100
1000
0001
0100
0001
0010
,
0100
0010
0001
1000
0010
0100
0001
1000
0110
1000
0001
0010
0100
0010
0001
1000
,
0100
0010
0001
1000
0010
0100
0001
1000
0100
0010
1001
0000
0000
0010
0100
0000
,
0000
0000
1001
0000
0000
0000
0001
0100
0010
1000
0100
0010
0001
0000
0010
0000
,
0100
0000
0000
1000
0000
0000
0001
0000
0010
0000
0100
0000
1000
0000
0001
0000
0100
0000
0010
0000
1000
0001
0000
0000
,
0000
0000
0000
0000
0000
0000
0000
0000
2002
3003
0000
0000
0000
0000
0000
0000
0000
0000
0000
0000
0000
0000
0000
0000
0000
0000
0000
0000
0000
0000
0000
0000
0000
0000
0000
0000
0000
0000
0000
0000
0000
0000
0000
0000
0000
0000
0000
0000
1000
0000
0000
0000
0000
0000
0000
0000
0001
0000
0000
0000
0000
0000
0000
0000
,
0110
1000
0011
0010
,
1100
1000
1001
0100
,
1010
1010
1001
0001
,
0110
1010
1001
0011
,
0110
1000
0001
0100
0011
1000
0100
0010
,
0101
0010
1000
0010
0101
1000
0010
0100
,
0011
0000
0100
0000
1000
0100
0010
0001
1100
0000
0010
0000
1001
0000
0100
0000
,
0011
0110
1100
1001
,
1002
0100
0013
1000
0210
1000
0301
0010
,
2100
0010
3001
1000
0021
1030
0201
1300
,
0210
0000
0000
1300
0100
0010
0001
0000
0000
0010
0000
0000
,
1100
0001
1100
0010
,
1001
0010
0100
0001
1100
0001
1000
0010
,
0101
1000
0010
0100
0011
0100
1001
0010
,
1001
0010
0100
0001
1010
0100
1000
0001
,
0110
1000
0110
0001
0110
1000
0200
0000
,
0302
0000
2003
0000
3200
0010
0001
1000
,
0320
0000
0032
0000
2003
0100
0010
0001
,
3020
0000
0230
0000
0302
1000
0010
1000
,
0023
0230
0320
2030
,
3020
0001
0230
0010
1302
0100
0010
1000
,
0203
1000
0320
0100
1032
0010
0100
1000
,
0123
1230
2301
3001
,
0002
0113
1000
0011
1001
0010
1100
0001
,
0010
0101
0101
1010
0101
1000
1001
0100
,
0001
0110
0110
1100
0001
0110
1001
0110
,
0001
0010
0100
1000
0100
0010
0001
1000
0010
0100
0001
1000
0100
1000
0001
0100
0001
0010
0100
1000
0100
0010
0001
0100
,
1010
0100
0001
1000
0010
0001
1100
0010
0001
0100
0010
1000
0101
0010
0100
0001
1000
0100
0011
0100
1000
0001
0100
0001
,
0110
1000
0010
0100
0001
0010
1100
0010
0100
0001
1000
0010
1001
0100
0010
1000
0001
0010
0101
1000
0010
0100
0001
1000
,
0011
0000
0100
0000
1000
0000
0001
0000
1000
0000
0010
0000
0101
0000
1000
0000
0010
0000
0100
0000
0001
0000
1000
0000
0110
0000
0001
0000
0010
0000
0100
0000
1000
0000
0010
0000
1001
0010
0100
1000
0001
0010
0100
1000
0001
0010
0100
1000
,
0101
1000
0010
1100
0001
1000
0011
0000
0000
0110
0000
0000
2100
0000
0000
3002
0000
0000
2003
0000
0000
3020
0000
0000
,
0230
0302
2003
3200
0312
0203
2300
3020
,
0231
0000
0302
0000
1023
0000
0230
0000
1302
0010
0103
1000
0110
1000
0001
0100
,
1010
0000
0001
0000
0100
0000
0001
0000
1010
0000
0100
0000
0001
0000
0010
0000
0101
0000
1000
0000
0010
1000
0100
0010
0001
0000
1000
0000
0010
0000
0100
0000
,
1001
0000
0010
0000
1000
0000
0101
0000
0010
0000
0100
0000
0011
0000
1000
0000
0001
0000
0110
0001
1000
0010
0100
0001
1010
0000
0000
0000
0000
0000
0100
0000
0000
0001
0000
0000
1000
0000
0000
0100
0000
0000
1000
0000
0000
0001
0000
0000
,
0110
0000
0100
0010
0001
0010
0100
1000
0011
0000
0100
0001
1000
0100
1000
0001
,
0110
0000
1000
0010
0001
1000
0010
0100
1001
0000
0010
0100
1000
0001
0100
0001
,
1010
0000
0001
0100
0001
1000
0010
0100
1001
0000
0010
0000
0101
0000
1000
0000
,
0110
0000
0001
0000
1010
0000
0100
0000
1001
0000
0010
1000
0100
1000
0001
0100
,
1001
0000
0001
0010
0100
0010
0001
1000
0110
0000
0010
0100
0001
1000
0100
1000
,
0011
0000
0001
0010
0100
0010
0001
1000
0110
0000
1000
0000
0011
0000
0100
0000
,
1001
0010
1100
0001
0110
0001
0010
0100
,
1010
0000
0000
0000
0000
0000
0000
0000
0000
0000
0000
0000
0000
0000
0000
0000
0000
0000
0000
0000
0000
0000
0000
0000
0000
0000
0000
0000
0000
0000
0000
0000
0000
0000
0000
0000
0000
0000
0000
0000
0000
0000
0000
0000
0000
0000
0000
0000
1010
0000
0000
0000
0000
0000
0000
0000
0000
0000
0000
0000
0000
0000
0000
0000
0000
0000
0000
0000
0000
0000
0000
0000
0001
0000
0000
0000
0000
0000
1000
0000
0000
0000
0000
0000
0010
0000
0000
0000
0000
0000
0100
0000
0000
0000
0000
0000
0001
0000
0000
0000
0000
0000
0000
0000
0000
0000
0000
0000
0000
0000
0000
0000
1000
0000
0000
0000
0000
0000
0000
0000
0000
0000
0000
0000
0000
0000
0000
0000
0100
0000
0000
0000
0000
0000
0000
0000
0000
0000
0000
0000
0000
0000
0000
0000
1010
0000
0000
0000
0000
0000
0000
0000
0000
0000
0000
0000
0000
0000
0000
0000
0001
0000
0000
0000
0000
0000
0000
0000
0000
0000
0000
0000
0000
0000
0000
0000
0010
0000
0000
0000
0000
0000
0000
0000
0000
0000
0000
0000
0000
0000
0000
0000
,
0101
1000
0010
0100
0001
1000
0110
1000
0001
1100
0001
0010
,
1100
0010
0001
1000
0010
0100
0011
1000
0100
1001
0010
0100
,
1001
0100
0010
0001
0100
0010
1000
0001
0010
0100
1000
0001
0100
0010
1000
0001
0000
0000
2000
0000
0000
0000
0000
0000
,
0000
0000
0000
0000
0200
0300
0000
3020
,
0000
0000
0000
0000
0230
0000
0000
0000
0000
0000
0302
0000
0000
2003
0000
0000
,
3020
0000
0000
0000
0000
0000
0000
0000
0000
0230
0000
0000
0302
0000
0000
0000
,
0000
0000
2003
0000
0000
3200
0000
0000
0320
0000
0000
0000
0000
0000
0000
0000
,
0000
0032
0000
0000
0023
0000
0000
0000
0000
0000
0000
0000
0000
0000
0000
0000
,
0230
0000
0000
0000
0000
0000
0302
0000
0000
2003
0000
0000
3200
0000
0000
0000
,
0000
0320
0000
0000
0002
0003
0000
0032
,
0000
2003
0000
0000
3200
0000
0000
0000
0000
0000
0320
0000
0000
0032
0000
0000
,
2003
0000
0000
0000
0000
0000
3020
0000
0000
0230
0000
0000
0302
0000
0000
0000
,
0003
0000
2000
0000
0000
3200
0000
0000
2300
0000
0000
0000
0000
0000
0000
0000
,
0000
3002
0000
0000
0203
0000
0000
0000
0300
0000
0020
0000
0000
2030
0000
0000
,
3002
0000
0000
0000
0000
0000
0023
0000
0000
0230
0000
0000
2300
0000
0000
0000
,
0000
0000
0000
0000
0000
3002
0000
0000
0203
0000
0000
0000
0000
0000
0000
0000
,
2302
0000
0000
0000
0000
0000
3003
0000
0000
0110
0000
1000
0000
0001
0000
0010
0000
0100
0000
1000
0000
0001
0000
0100
,
0000
1001
0000
0010
0000
1000
0000
0100
0000
0010
0000
0001
0000
0010
0000
0100
0000
2020
0000
0000
0000
3030
0000
0100
,
0000
1001
0000
0010
0000
0001
0000
1000
0000
0100
0000
1000
0000
0001
0000
0100
0000
1001
0000
0100
0000
1000
0000
0001
,
0000
0012
0000
0000
0000
0103
0000
0100
0000
0000
0000
0010
0000
1000
0000
0100
0000
0011
0000
0000
0000
0001
0000
0000
,
0000
1010
0000
0000
0000
0110
0000
0000
0000
2001
0000
0000
3020
0000
0000
0230
0000
0000
0302
0000
0000
2003
0000
0000
,
3200
0320
0032
1103
0001
0210
0000
0320
,
0000
1001
0000
1031
0010
0100
0001
1000
,
0100
1000
0001
0011
0100
1000
0001
0100
,
0010
0000
2000
0000
0000
3000
0022
0000
0033
0000
0000
0000
0001
0000
2000
0000
,
0010
3200
0001
0320
1000
0100
0032
1010
,
0103
0020
0001
2030
0001
0100
3002
0000
,
0013
0001
1000
0200
0000
0320
0000
0032
,
0000
2003
0000
3020
0000
0000
0230
0000
,
0000
0302
0000
2003
0000
3200
0000
0000
,
0000
0320
0000
0032
0000
0000
0103
1000
,
0010
0200
0001
2300
0000
0000
3000
0011
,
0000
1001
0000
1100
0000
0001
1000
0010
,
0100
0001
2200
0000
3300
1000
0100
0010
,
0001
1000
0220
0000
0300
0000
0230
0000
,
0000
2300
3020
0032
,
0203
0000
0000
0000
0320
0000
1000
0000
0130
0000
0001
0010
0001
1000
0010
1000
,
0100
0000
0000
0010
0000
0000
0101
0000
0000
0000
1000
0000
0000
0000
0001
0000
0000
0000
0100
0000
0000
0000
0010
0000
0000
0000
0100
0000
0000
0000
0001
0000
0000
1000
0000
0000
0010
0000
0000
1000
0000
0000
0001
0000
0000
0010
0000
0000
,
0100
0010
0101
1000
0010
0100
0001
1000
0100
1000
0001
0010
0100
1000
0001
1000
,
0010
0100
0001
1000
0100
1000
0001
0010
0100
0010
0001
1000
0010
0100
0001
1000
,
0100
0010
1001
0000
0010
0000
0100
0000
0001
0000
1000
0100
1000
0001
0010
0100
,
0010
0000
0000
0001
0000
0000
1000
0000
0000
0000
0100
0000
0000
0000
0010
0000
0000
0000
0001
0000
0000
0000
0010
0000
0000
0000
0100
0000
0000
0000
1000
0000
0000
0010
0000
0000
0100
0000
0000
0001
0000
0000
1000
0000
0000
0100
0000
0000
,
1000
0001
1010
0100
0010
0001
1000
0010
0100
0001
1000
0100
1000
0001
0010
0100
,
0010
0001
1100
0010
0100
0001
1000
0010
0001
1000
0001
0010
0100
0001
0010
0100
,
0010
0001
1100
0000
0000
0000
0010
0000
0001
0000
1100
0000
0010
0000
0100
0000
,
0001
1010
0100
0010
0001
2010
3100
0010
,
0001
1200
0310
1000
0001
1010
0100
0010
,
0001
1020
0130
1000
0001
2100
3010
0100
,
0001
0000
1002
0000
0000
0203
0000
0000
2300
0000
0000
3020
0000
0000
0230
0000
,
0000
0302
0000
0000
2003
0000
3000
2000
0000
0000
3002
0000
0000
0000
1000
0000
,
0100
0000
0010
0000
0100
0000
1000
0000
1010
0003
0000
0000
1000
0000
0010
0000
,
1000
0001
0010
0100
2001
0010
0100
0001
,
0010
0001
3210
0010
1302
0010
0100
1000
,
0010
1000
0123
0001
1230
0001
0010
1000
,
0312
0100
2103
0010
3201
0010
1000
0001
,
1320
0100
0132
1000
2013
0100
0001
3210
,
0001
0010
1302
0010
2103
0100
3021
1000
,
0231
1000
0312
0010
2103
0001
0010
3201
,
1000
0000
0000
0001
0000
0000
2320
0000
0000
3030
0000
0000
0101
0000
1000
0000
0010
0000
1001
0000
0100
0000
0001
0000
,
0110
0000
1000
0000
0010
0000
1100
0000
0001
0000
0010
0000
1001
0000
0000
0000
0000
0000
0001
0010
0100
1000
0100
0010
,
0001
0000
1000
0000
0010
0000
0100
0000
0010
0000
1000
0000
0001
0000
0000
0200
0000
0000
0000
0000
0000
0000
0000
0000
0000
0000
0000
0000
0000
0000
0000
0000
0000
0000
0000
0000
0000
0000
0000
0000
0000
0000
0010
0000
0000
0000
0000
0000
,
0010
0000
0000
0000
0000
0000
0000
0020
,
0030
0020
0000
0000
0000
0330
0000
1001
,
1001
0000
0000
0000
0001
0010
0100
1000
0001
0000
0000
0000
0010
0001
1000
0010
,
0001
0000
0000
0000
0001
0100
1000
0001
0100
0000
0000
0000
0001
1000
0010
0100
,
1001
0000
0000
0000
1000
0010
0001
0100
1000
0000
0000
0000
0001
1000
0001
0010
,
1000
0000
0000
0000
1000
0001
1000
0010
0001
0000
0000
0000
1001
0100
0010
0100
,
1001
0000
0000
0000
0001
1000
0010
0100
0001
0000
0000
0000
1000
0100
0010
0001
,
1000
0000
0000
0000
0010
0100
0001
1000
0010
0000
0010
0000
0010
1000
0001
0010
,
0100
0000
1100
0000
1100
0010
0001
1000
0110
0000
0000
0000
0010
0100
0001
1000
,
0110
0000
0000
0000
0100
1000
0001
0010
0100
0010
0001
1000
0010
0100
0001
1000
,
0100
0100
0010
0010
0001
0001
1000
1000
0010
0010
0100
0001
1000
0100
0010
0001
,
0100
0010
0100
0010
0100
0010
1000
0010
1000
0010
1000
0001
,
1000
0000
0010
0000
0100
0000
0001
0000
0100
0000
0010
0000
1000
0000
0001
0000
1000
0000
0100
0000
0000
0100
0000
0000
0010
0000
0000
0001
0000
0000
1000
0000
0000
0010
0000
0000
0100
0000
0000
0001
0000
0000
1000
0000
0000
0100
0000
0000
,
0010
0001
0010
0100
1001
0000
0000
0000
1000
0002
0000
0003
0000
0000
0000
0000
,
1001
0110
1001
0110
1111
0000
0010
0000
0001
0000
1000
0000
0100
0000
1000
0000
,
0001
0010
0100
1000
0010
0100
0010
1000
0100
0010
0001
1000
0011
0000
1001
0000
,
1010
0100
0001
1000
0100
0010
0001
0010
0100
1000
0001
0100
1001
0000
1000
0000
,
1000
0010
0100
0001
1000
0100
0010
0001
0010
0100
1000
0010
0100
0001
2000
0000
,
3100
0010
0001
0010
0100
1000
0011
0000
1100
0000
0001
1000
0010
0001
0010
1000
,
0000
1000
0010
0100
0001
1000
0010
0001
1000
0010
0001
1000
0010
0001
1000
0100
,
0011
0000
0000
0000
1000
0100
1000
0001
0100
0001
0010
0100
0010
0001
1000
0010
,
0101
1000
0100
1000
0001
0100
0001
0100
0010
1000
0010
0100
,
1001
0010
0100
0001
1000
0100
0010
0001
1000
0100
0010
0000
1001
0000
1001
0000
,
0110
0000
1001
0000
0110
0000
0001
1000
0100
1000
0001
0010
0100
0010
0001
1000
,
0010
0100
0011
0000
1001
0000
1010
0100
0001
1000
0100
1000
0001
0010
0100
0010
,
0001
1000
0010
0200
0300
0100
0001
1000
0001
1000
0010
0100
0010
0001
1000
0010
,
0001
1000
0100
0001
1010
0000
0100
0001
1000
0001
0100
0010
0001
0010
0100
1000
,
0010
0100
0001
0010
1100
0000
0001
0010
0001
0100
0010
1000
0100
1000
0001
0010
,
0100
0010
0001
1000
0110
0000
0001
1000
0001
0100
0001
0010
0100
1000
0001
0010
,
0100
1000
0001
0010
1000
0001
0110
0001
1000
0100
1000
0001
0010
0100
1010
0001
,
1000
0010
0100
0001
1000
0100
1000
0001
1000
0001
0010
0100
1000
0001
0010
0100
,
1000
0100
0010
1000
0100
0010
0001
0010
0100
0000
1000
0000
0001
0000
0100
0000
,
0010
0000
1000
0000
0100
0000
1000
0000
0001
1000
0001
0000
0010
0001
0010
0000
,
0100
0000
1000
0000
0010
0000
0100
0000
0001
0100
0001
0000
0100
0010
0100
0000
,
0010
0000
1000
0000
0100
0000
1001
0000
0100
0010
0100
0000
0010
0100
0010
0000
,
0001
0000
0010
0000
0100
0000
1000
0000
0001
0000
0100
0000
0001
0000
0000
1000
0000
0000
0110
0000
0000
0000
0000
0000
0001
0000
0000
1000
0000
0000
0001
0000
0000
0000
0000
0000
1000
0000
0000
0100
0000
0000
1000
0000
0000
0000
0000
0000
,
0001
0000
0010
0000
0100
0000
0010
0000
0001
0010
0001
0000
0010
0100
0010
0000
,
0100
1000
0001
1000
0010
0100
0011
1000
0010
0100
0001
1000
,
0110
1000
0001
0010
0100
0010
0101
1000
0010
0100
0001
1000
,
0101
0000
0000
0000
0010
0000
0000
0000
0001
0000
0000
0000
1010
0000
0000
0000
0100
0000
0000
0000
0010
0000
0000
0000
1001
0000
0000
0000
0000
0000
0000
0000
0000
0000
0000
0000
0000
0000
0000
0000
0000
0000
0001
0000
0000
1000
0000
0000
,
0010
1000
0001
0010
0100
1000
0100
0010
0001
1000
0001
0010
0001
0100
1000
0001
,
0010
0001
1000
0100
0010
0001
0100
1000
0100
0010
0001
1000
0011
0000
0011
0000
,
0000
1010
0000
1010
0000
1010
0000
1100
0000
1100
0000
1100
0000
0110
0000
0110
0000
0110
0000
1001
0000
1001
0000
0110
,
0000
0000
0000
0000
0000
0000
0000
0000
1001
0000
0000
0000
0000
0000
0000
0000
0000
0000
0000
0000
0000
0000
0000
0000
0110
0000
0000
0000
0000
0000
0000
0000
0000
0000
0000
0000
0000
0000
0000
0000
1001
0000
0000
0000
0000
0000
0000
0000
0000
0000
0000
0000
0000
0000
0000
0000
0110
0000
0000
0000
0000
0000
0000
0000
0000
0000
0000
0000
0000
0000
0000
0000
1001
0000
0000
0000
0000
0000
0000
0000
0000
0000
0000
0000
0000
0000
0000
0000
0000
0000
0011
0000
0000
0000
0000
0000
0000
0000
0000
0000
0000
0000
0000
0000
0000
0000
0000
0000
0110
0000
0000
0000
0000
0000
0000
0000
0000
0000
0000
0000
0000
0000
0000
0000
0000
0000
1100
0000
0000
0000
0000
0000
0000
0000
0000
0000
0000
0000
0000
0000
0000
0000
0000
0000
1001
0000
0000
0000
0000
0000
0000
0000
0000
0000
0000
0000
0000
0000
0000
0000
0000
0000
0000
0000
0000
0000
0000
0000
0110
0000
0000
0000
0000
0000
0000
0000
0000
0000
0000
0000
0000
0000
0000
0000
0000
0000
0000
0000
0000
0000
0000
0000
,
2002
0000
0000
3003
0000
0000
0010
0000
0000
1100
0000
1100
0000
1100
0000
0110
0000
0110
0000
0110
0000
0011
0000
0011
,
0000
0011
0000
1001
0000
1010
0000
1010
0000
0101
0000
0101
0000
0101
0000
0110
0000
0110
0000
0110
0000
1010
0000
1010
,
0000
1010
0000
1001
0000
1100
0000
1100
0000
1001
0000
1001
0000
1001
0000
0101
0000
0101
0000
0101
0000
0110
0000
0110
,
0000
0110
0000
1001
0000
0101
0000
0101
0000
0101
0000
1010
0000
1010
0000
1010
0000
1001
0000
1001
0000
1001
0000
0101
,
0000
0101
0000
0101
0000
1001
0000
0110
0000
0110
0000
1001
0000
1001
0000
1001
0000
0101
0000
0101
0000
0101
0000
0110
,
0000
0110
0000
0110
0000
1001
0000
1010
0000
1010
0000
0101
0000
0101
0000
0101
0000
0110
0000
0110
0000
0110
0000
1010
,
0000
1010
0000
1010
0000
1001
0000
0001
0000
0001
0000
1000
0000
1000
0000
1000
0000
0100
0000
0100
0000
0100
0000
0010
,
0000
0010
0000
0010
0000
0001
0000
0001
0000
1000
0000
0010
0000
0100
0000
0001
0000
1000
0000
0100
0000
0010
0000
0001
,
0000
0010
0000
0100
0000
1000
0000
0010
0000
0001
0000
1000
0000
0000
0100
0000
1000
0000
0000
0001
0000
0000
0100
0000
,
0000
0001
0000
0000
0010
0000
0000
0100
0000
0000
0000
1000
0000
0000
0001
0000
0000
0000
1001
0000
0010
0000
0100
0000
,
0011
1000
0100
1010
0001
0010
1001
0010
0100
1001
0010
0100
,
0001
1000
0100
0010
0001
1000
0100
0010
0001
1100
0010
0001
,
1100
0010
1000
0101
0010
1000
0101
0010
0100
1001
0100
0010
,
0001
1000
0100
0010
0001
0010
0100
1000
0001
1100
0010
0001
,
1100
0010
0100
1001
0100
0010
1001
0010
1000
0101
0000
0101
,
0000
1001
0000
1001
0000
1100
0000
0011
0000
0110
1000
0001
,
1000
0010
0100
0011
1000
0100
0010
0001
0010
0101
1000
0010
,
0100
0001
1000
0110
1000
0001
0010
0100
0010
1001
0100
0001
,
1010
0001
1000
0110
1000
0010
0101
1000
0100
1001
0100
0010
,
0001
0010
0100
1001
0100
0010
0001
1000
0001
1100
0010
0100
,
1001
0010
1000
0101
1000
0001
0110
0001
0100
1010
0100
0010
,
0001
1000
0100
0010
0001
0010
0100
1000
0100
0011
1000
0001
,
0110
0001
0010
1100
0010
0100
1001
0000
0000
0101
0000
0000
,
1001
0000
0000
2100
0000
0000
3001
1000
0010
0100
0002
0000
,
0000
0000
0000
0000
,
2003
0000
0000
3200
,
0320
0000
0000
0000
,
0031
0000
0010
0000
0100
0000
1000
0000
0002
0003
0000
0000
0000
0000
1000
0000
,
0100
0010
0001
2002
0000
0000
3003
0000
,
0001
1000
0010
0100
1000
0001
0010
0100
2002
0000
3003
0000
0010
0100
0001
1000
,
0010
0000
0000
1000
0000
0000
0001
0000
0000
0010
0000
0000
0100
0000
0000
0010
0000
0000
0001
0000
0000
0000
0010
0000
0000
0000
0100
0000
0000
0000
1001
0000
0000
0000
0000
0000
0000
0000
0000
0000
0000
0000
0010
0000
0000
0001
0000
0000
,
1000
0000
0000
0010
0000
0000
1000
0000
0000
0001
0000
0000
0010
0000
0000
0100
0000
0000
0010
0000
0000
0100
0000
0000
1000
0000
0000
0000
0001
0000
0000
0000
1000
0000
0000
0000
1001
0000
0000
0000
0000
0000
0000
0000
0000
0000
0000
0000
,
0000
2002
0000
0000
,
0000
0000
0000
3003
0000
0000
1001
0010
0100
0001
1000
1000
,
0100
0010
0010
0001
0010
0010
0100
1000
1000
0010
1000
1000
,
0100
0010
0010
0001
0100
0100
0010
1000
1000
0001
1000
1000
,
0100
0010
0010
0001
0100
0100
0010
1000
0001
1000
0001
0010
,
0100
0010
0100
1000
0011
0100
1001
0010
0100
0001
1000
0100
,
1000
0001
0010
0100
0010
0001
0001
1000
0100
0100
0010
0001
,
0010
0100
1000
0001
0100
0010
1000
0100
1001
0000
0010
0000
1001
0000
0100
0000
0010
0000
0001
0000
1000
0000
0010
0000
,
0100
0001
1000
0100
0010
0100
1002
0000
0000
1203
0000
0000
,
2301
0000
0000
3201
0000
0000
1301
0010
0100
0001
1000
0100
,
0010
1000
0010
0100
1000
0010
0001
1000
0010
0100
1000
0001
,
0010
0100
0010
0001
1000
0010
1001
0000
0000
0000
0000
0000
,
0001
0000
0000
1000
0000
0000
0001
0000
0010
0000
0100
0000
1000
0000
0000
1001
0000
0000
1001
0000
0000
0110
0000
0000
,
1001
0000
0110
0000
1000
0001
0100
0010
1000
0100
0010
0001
0010
0100
0001
1000
,
0010
0100
1001
0000
1001
0100
0010
0001
0010
0100
1000
0010
0100
0001
1000
0001
,
0010
0000
0100
0000
1000
0000
0001
0000
0000
0010
0000
0000
0000
0000
0000
0010
0000
0000
0100
0000
0000
1000
0000
0000
0001
0000
0000
0100
0000
0000
0010
0000
0000
1000
0000
0000
0001
0000
0000
0010
0000
0000
0100
0000
0000
0010
0000
0000
,
0001
0000
0000
1000
0000
0000
0010
0000
0000
0001
0000
0000
0110
0000
0000
0000
0000
0000
1000
0000
0000
0001
0000
0000
0010
0000
0100
0000
1000
0000
0100
0000
0000
0010
0000
0000
0001
0000
0000
0010
0000
0000
0100
0000
0000
1000
0000
0000
,
0001
0010
0100
1000
0011
0000
0010
0100
1000
0001
0100
0001
1000
0100
0010
0001
,
0010
0100
1000
0010
0100
0001
0100
0000
0010
0000
1000
0010
1000
0010
1000
0010
,
1001
0000
1001
0000
1001
0010
0101
1000
0100
0010
0001
1000
0100
1000
0011
0100
,
0010
0000
0000
0001
0000
0000
1000
0000
0000
0001
0000
0000
0100
0000
0000
0000
0010
0000
0000
0000
0100
0000
0000
0000
1000
0000
0000
0000
0001
0000
0000
0000
0100
0000
0000
0000
0010
0000
0000
0000
1000
0000
0000
0000
0001
0000
0000
0000
,
0010
0000
0000
0000
1000
0000
0000
0000
0010
0000
0000
0000
1000
0000
0000
0001
0000
0000
0010
0000
0000
0100
0000
0000
1000
0000
0000
0001
0000
0000
0100
0000
0000
0010
0000
0000
1000
0000
0000
0001
0000
0000
0010
0000
0000
0100
0000
0000
,
1000
0000
0100
0000
1001
0110
1001
0110
1001
0010
0100
1000
0100
0010
0001
0100
,
0010
1000
0001
0100
1000
0001
0010
1000
0101
0000
1001
0000
1100
0010
0001
1000
,
0001
0100
1000
0100
1000
0001
0010
0100
1001
0000
0001
0100
0010
1000
0001
0010
,
0100
0000
0000
1000
0000
0000
0100
0000
0000
0010
0000
0000
0001
0000
0000
1000
0000
0000
0010
0000
0100
0000
0001
0000
1000
0000
0000
0000
0000
0000
0100
0000
0000
0010
0000
0000
0100
0000
0000
0000
0000
0000
1000
0000
0000
0001
0000
0000
,
1000
0000
0000
0010
0000
0000
0100
0000
0000
0001
0000
0000
0010
0000
0000
0100
0000
0000
0010
0000
0001
0000
1000
0000
0110
0000
0000
0000
0000
0000
0001
0000
0000
1000
0000
0000
0010
0000
0000
0100
0000
0000
0001
0000
0000
1000
0000
0000
,
0100
0000
0000
0010
0000
0000
0001
0000
0000
0010
0000
0000
0100
0000
0000
1000
0000
0000
0001
0000
0100
0000
0010
0000
1000
0000
0000
0000
0000
0000
1000
0000
0000
0100
0000
0000
0010
0000
0000
0001
0000
0000
1000
0000
0000
0100
0000
0000
,
1000
0010
0100
0001
1000
0010
0001
0100
0011
1000
0100
1000
0001
0100
0001
0010
,
1100
0010
0001
1000
0010
0100
0001
0010
0100
1100
0000
0110
0000
0011
0000
1001
,
0010
0100
1000
0001
0100
0010
1000
0001
0110
0001
1000
0100
1000
0010
0100
0001
,
1100
0010
0001
1000
0010
0100
1000
0010
0101
0010
1000
0100
1000
0001
0010
0100
,
0011
1000
0100
0001
0010
1000
0010
0100
1001
0010
1000
0001
0100
0010
0001
0100
,
1010
0100
0001
1000
0001
0100
0010
0001
1010
0100
0001
0100
1010
0001
1000
0001
,
0110
1000
0010
1000
0101
0010
1000
0001
0110
0000
0110
1000
0001
0100
0010
1000
,
0101
0000
0101
0010
1000
0001
0100
0010
1001
0000
1001
0100
0010
0001
1000
0001
,
0110
0000
0110
0001
1000
0100
0010
0001
0200
0000
0000
0000
0302
0000
0000
0000
,
2003
3200
0320
0000
,
0000
0000
0032
2003
,
3020
0230
0302
0000
,
0000
2003
3200
0000
,
0000
0320
0032
0000
,
0000
0000
0003
0000
0100
0001
1000
0100
0011
0000
0000
0000
0010
0100
1000
0010
,
0001
0000
0000
0000
0001
0010
1000
0100
0001
0000
0000
0000
0001
0100
1000
0001
,
0010
0000
0000
0000
0110
1000
0001
0010
1100
0000
0000
0000
0100
1000
0010
0100
,
1001
0000
0000
0000
0001
0010
0100
1000
0011
0000
0000
0000
0100
1000
0001
0100
,
1010
0000
0000
0000
0000
0000
0000
0000
0000
0000
0000
0000
1000
0000
0100
0000
0010
0000
0001
0000
0000
0100
0000
0000
1001
0000
0000
0000
0010
0000
0000
0000
0001
0000
0000
0000
1100
0000
0000
0000
0010
0000
0000
0000
0100
0000
0000
0000
,
1001
0010
1000
0101
1000
0100
0011
1000
0001
1010
0100
1000
,
0011
0100
0010
1001
1001
1001
0110
0110
0110
0101
0101
0101
,
1001
1001
1001
1100
1100
1100
0011
0011
0011
0110
0110
0110
,
1001
1001
1001
1010
1010
1010
0202
0000
0303
2002
0000
0000
,
0000
0000
0000
0000
,
0000
0000
0000
3003
0220
0330
0000
0000
,
2020
3030
0000
1100
0022
0033
0000
0000
,
0000
0000
0000
0000
0000
0000
0000
0000
2002
3003
0000
0000
0000
0011
0000
0110
,
2200
3300
0000
1010
0110
0202
0303
0000
;
